Не проигрывает нужный трек из CUE

Замечания и отчеты о найденных ошибках.
Gost Jr
Passerby
Posts: 7
Joined: Sat Jan 07, 2012 7:40 pm

Не проигрывает нужный трек из CUE

Post by Gost Jr » Sat Jan 07, 2012 7:51 pm

Здравствуйте, разработчики! Большую часть моей медиатеки составляют lossless форматы с cue листами. Файлы добавляются на УРА, но только есть одна проблема. Пользуюсь сторонним плеером AIMP, при проигрывании файлов из Musicnizer в AIMP они добавляются, но играть начинает первый трек из CUE файла. Т.е. имеем список треков Track01, Track02, Track03. В Musicnizer нажимаю на кнопку плей возле Track03, в плейлисте плеера открывается весь cue со всеми треками, и начинает проигрываться Track01 а не Track03. Что можете сказать по этому вопросу?

User avatar
Igor
Developer
Posts: 334
Joined: Tue May 31, 2011 11:46 am

Re: Не проигрывает нужный трек из CUE

Post by Igor » Tue Jan 10, 2012 12:18 pm

Пожалуйста, попробуйте запустить тот же трек при помощи CUE списка из Musicnizer его родным плеером и сообщить нам будет ли повторяться проблема. Возможно, Ваш внешний плеер является причиной этой проблемы.
ImageImage

Gost Jr
Passerby
Posts: 7
Joined: Sat Jan 07, 2012 7:40 pm

Re: Не проигрывает нужный трек из CUE

Post by Gost Jr » Tue Jan 10, 2012 7:46 pm

Igor wrote:Пожалуйста, попробуйте запустить тот же трек при помощи CUE списка из Musicnizer его родным плеером и сообщить нам будет ли повторяться проблема. Возможно, Ваш внешний плеер является причиной этой проблемы.
Так дело в том, что ни в Winamp 5.623 ни в Aimp(2 и 3 версии) правильно файлы не проигрываются... Функция то у вас есть проигрывать во внешнем(даже функция проиграть в winamp) плеере, а ни в том, ни в другом не проигрывается правильно( в winamp вообще не проигрывается и не добавляется в плейлист). В вашем плеере все в порядке, но он не устраивает по той причине, что: 1) нету плейлистов, т.е. нельзя набрать список файлов и проиграть их в нужном порядке, и в том, что 2) ваш плеер просто начинает проигрывать с того места, где начинается песня, и играет до конца всего ape(flac) файла.

User avatar
maniac
Developer
Posts: 4382
Joined: Wed Jan 23, 2008 11:06 am
Location: La Prairie, Canada
Contact:

Re: Не проигрывает нужный трек из CUE

Post by maniac » Sun Feb 19, 2012 7:57 pm

Скажите, у вас 1 большой файл или каждый трек идет отдельно?
Лучше всего показать пример CUE-файла.
ImageImage

Gost Jr
Passerby
Posts: 7
Joined: Sat Jan 07, 2012 7:40 pm

Re: Не проигрывает нужный трек из CUE

Post by Gost Jr » Thu Mar 01, 2012 10:28 am

maniac wrote:Скажите, у вас 1 большой файл или каждый трек идет отдельно?
Лучше всего показать пример CUE-файла.
Да, вы правы, файл альбома один + файл разметки(cue).
Пример файла:
"
REM GENRE Darkwave
REM DATE 2010
REM DISCID BF0D0F0D
REM COMMENT "ExactAudioCopy v0.99pb5"
PERFORMER "Otto Dix"
TITLE "Чудные Дни"
FILE "Otto Dix - Чудные Дни.flac" WAVE
TRACK 01 AUDIO
TITLE "Те, кто будут после"
PERFORMER "Otto Dix"
FLAGS DCP
INDEX 01 00:00:00
TRACK 02 AUDIO
TITLE "Чудные дни"
PERFORMER "Otto Dix"
FLAGS DCP
INDEX 01 04:46:57
TRACK 03 AUDIO
TITLE "Машина"
PERFORMER "Otto Dix"
FLAGS DCP
INDEX 01 09:48:03
"
Если можно, добавьте возможность самому менять строку параметров запуска для пользовательского проигрывателя... Причем хотелось бы видеть ваши внутренние параметры тоже, например для плеера AIMP3 добавление трека из cue осуществляется следующим образом:
AIMP3.exe /file "e:\music\Исполнитель1\Альбом1\Имя_куе_листа.cue:0" где 0 - номер первого трека в cue-листе
т.е. хотелось бы видеть в вашей программе возможность указать параметры например так:
/file "%path%:%track%" т.е. при нажатии на play срабатывала эта команда с параметрами %path% - путь файла трека, %track% - номер трека, которые брались бы из вашей программы. И пользователь сам бы мог настроить эти параметры как того требует используемый им проигрыватель.

Gost Jr
Passerby
Posts: 7
Joined: Sat Jan 07, 2012 7:40 pm

Re: Не проигрывает нужный трек из CUE

Post by Gost Jr » Thu Mar 28, 2013 6:04 am

Здравствуйте еще раз! Вот скачал попробовать 6-ую версию вашего каталогизатора, но все равно нельзя посылать в проигрыватель отдельные треки из цельного lossless файла с cue листом... Эта проблема как-то озвучивалась или она была взята во внимание?
И хотелось бы увидеть возможность создания плейлиста из вашего каталогизатора...
Спасибо!

User avatar
maniac
Developer
Posts: 4382
Joined: Wed Jan 23, 2008 11:06 am
Location: La Prairie, Canada
Contact:

Re: Не проигрывает нужный трек из CUE

Post by maniac » Thu Mar 28, 2013 8:42 am

Какой проигрыватель вы имеете в виду? Если использовать встроенный проигрыватель, то можно без проблем проиграть 5 трек, например.
ImageImage

Gost Jr
Passerby
Posts: 7
Joined: Sat Jan 07, 2012 7:40 pm

Re: Не проигрывает нужный трек из CUE

Post by Gost Jr » Thu Mar 28, 2013 7:29 pm

Не, ваш проигрыватель этим и не удобен, что начало песни то он находит, а конца-нет... будет играть до конца всего лосслесс файла(((

User avatar
maniac
Developer
Posts: 4382
Joined: Wed Jan 23, 2008 11:06 am
Location: La Prairie, Canada
Contact:

Re: Не проигрывает нужный трек из CUE

Post by maniac » Thu Mar 28, 2013 8:15 pm

Gost Jr wrote:Не, ваш проигрыватель этим и не удобен, что начало песни то он находит, а конца-нет... будет играть до конца всего лосслесс файла(((
Ну а про свой вы так и не написали. Я вообще не представляю как можно из Windows запустить какой-то MP3 с помощью любого плеера, чтобы он начал играть с середины файла, например.
ImageImage

Gost Jr
Passerby
Posts: 7
Joined: Sat Jan 07, 2012 7:40 pm

Re: Не проигрывает нужный трек из CUE

Post by Gost Jr » Tue May 07, 2013 5:50 am

maniac wrote: Ну а про свой вы так и не написали. Я вообще не представляю как можно из Windows запустить какой-то MP3 с помощью любого плеера, чтобы он начал играть с середины файла, например.
Так mp3 меня и не интересует, а тем более с какого-то места... я же и веду речь о том, что, например, в том же AIMP если посылать на AIMP3.exe строку вида /file "e:\music\Исполнитель1\Альбом1\Имя_куе_листа.cue:0" где 0 - номер первого трека в cue-листе, то он проиграет нужный трек из cue-листа...
Почему бы не добавить вам возможность отправки как можно большего числа параметров в сторонний плеер, чтобы пользователи могли настроить вашу неплохую программу на свои сторонние плееры, тем более, что ваш плеер далеко не идеален, хотя бы в том плане, что нету плейлиста(возможно он и не нужен в аудиокаталогизаторе)... Было бы верхом совершенства, если бы все-таки добавили такую возможность, отправки своих параметров в плеер, как у вас уже это частично реализовано, но не для cue-листов.

Post Reply